Witaj Gościu! jeżeli widzisz ten dymek to znaczy że nie jesteś zarejestrowany/zalogowany. Kliknij by się zarejestrować. Rejestracja zajmie mniej niż 30 sekund, a dzięki niej zyskasz możliwość pobierania, komentowania oraz dodawania torrentów !

MENU


Kategorie


FACEBOOK


PROGRAMY


WspółPraca
Poradnik
KAN


ZAGŁOSUJ NA NAS


Torrent



Torrent: Tomb Raider*2018* [1080p] [WEB-DL] [DD5 1] [H264-FGT] [ENG] [zibi6248]
Dodał:  zibi6248
Data: 29-05-2018
Rozmiar: 4.04 GB
Seed: 0
Peer: 0
Kondycja:
Zaloguj się aby pobrać


Kategoria:  Filmy x264/h264
Gatunek: Przygodowy
Zaakceptował: Nie wymagał akceptacji
Liczba pobrań: 57
Liczba komentarzy: 0
Ostatnia aktualizacja: 2018-06-04 10:41:51

OPIS:



Produkcja: USA, Wielka Brytania
Gatunek: Przygodowy
Premiera: 6 kwietnia 2018 (Polska), 2 marca 2018 (świat)
Reżyseria: Roar Uthaug
Scenariusz: Geneva Robertson-Dworet, Alastair Siddons
http://www.youtube.com/watch?v=2w5VZmos5I4



Lara Croft to niepokorna córka ekscentrycznego podróżnika, który zniknął, gdy dziewczyna miała kilkanaście lat. Teraz, jako 21-letnia kobieta, podąża własną ścieżką, odmawiając spełnienia woli ojca, który chciał dla niej spokojnego życia. Zostawia wszystko za sobą i udaje się w ostatnie znane miejsce jego pobytu. Poszukując śladów, musi odnaleźć osławiony grobowiec na mitycznej wyspie u wybrzeży Japonii. Jeśli nie przezwycięży własnych lęków, może nie przeżyć niezwykle niebezpiecznej wyprawy. Jak wiele poświęci, by poznać tajemnicę zniknięcia ojca i zyskać miano tomb raidera?



★ Alicia Vikander .... Lara Croft
★ Dominic West .... Lord Richard Croft
★ Walton Goggins .... Mathias Vogel
★ Daniel Wu .... Lu Ren
★ Kristin Scott Thomas .... Ana Miller
★ Derek Jacobi .... Pan Yaffe
★ Alexandre Willaume .... Porucznik
★ Tamer Burjaq .... Najemnik



Video
ID                                       : 1
Format                                   : AVC
Format/Info                              : Advanced Video Codec
Format profile                           : [email protected]
Format settings                          : CABAC / 5 Ref Frames
Format settings, CABAC                   : Yes
Format settings, ReFrames                : 5 frames
Codec ID                                 : V_MPEG4/ISO/AVC
Duration                                 : 1 h 57 min
Bit rate                                 : 4 525 kb/s
Width                                    : 1 920 pixels
Height                                   : 802 pixels
Display aspect ratio                     : 2.40:1
Frame rate mode                          : Constant
Frame rate                               : 23.976 (24000/1001) FPS
Color space                              : YUV
Chroma subsampling                       : 4:2:0
Bit depth                                : 8 bits
Scan type                                : Progressive
Bits/(Pixel*Frame)                       : 0.123
Stream size                              : 3.72 GiB (92%)
Title                                    : Tomb.Raider.2018.1080p.WEB-DL.DD5.1.H264-FGT
Language                                 : English
Default                                  : Yes
Forced                                   : No
Color range                              : Limited
Color primaries                          : BT.709
Transfer characteristics                 : BT.709
Matrix coefficients                      : BT.709

Audio
ID                                       : 2
Format                                   : AC-3
Format/Info                              : Audio Coding 3
Codec ID                                 : A_AC3
Duration                                 : 1 h 57 min
Bit rate mode                            : Constant
Bit rate                                 : 384 kb/s
Channel(s)                               : 6 channels
Channel positions                        : Front: L C R, Side: L R, LFE
Sampling rate                            : 48.0 kHz
Frame rate                               : 31.250 FPS (1536 SPF)
Bit depth                                : 16 bits
Compression mode                         : Lossy
Stream size                              : 324 MiB (8%)
Title                                    : Tomb.Raider.2018.1080p.WEB-DL.DD5.1.H264-FGT
Language                                 : English
Service kind                             : Complete Main
Default                                  : Yes
Forced                                   : No

Text
ID                                       : 3
Format                                   : UTF-8
Codec ID                                 : S_TEXT/UTF8
Codec ID/Info                            : UTF-8 Plain Text
Duration                                 : 1 h 50 min
Bit rate                                 : 30 b/s
Count of elements                        : 941
Stream size                              : 25.0 KiB (0%)
Language                                 : English
Default                                  : Yes
Forced                                   : No

DETALE TORRENTA:[ ]
Podziękowania, jack1164
 


Podobne pliki
Nie znaleziono podobnych tytułów!


Komentarze